Police.Interceptors.Season.1.Episode.2.H265.1080p.WEBRip.EzzRips

  • Category Documentaries
  • Type Documentary
  • Language English
  • Total size 697.8 MB
  • Uploaded By bleprips
  • Downloads 110
  • Last checked 1 month ago
  • Date uploaded 1 month ago
  • Seeders 1
  • Leechers 16

Infohash : C87A33C3D034F044FB49CA3ED9B6EF59219AF014


Season: 1
Episode: 2
Series: Police Interceptors
Air Date: May 16th, 2008
Genre: Documentary
IMDb Page: https://www.imdb.com/title/tt4446602/?ref_=ttep_ep2
Video Info:
Format : MPEG-4
Format profile : Base Media / Version 2
Codec ID : mp42 (mp42/iso2/mp41)
File size : 698 MiB
Duration : 44 min 57 s
Overall bit rate mode : Variable
Overall bit rate : 2 170 kb/s
Encoded date : UTC 2022-06-28 02:33:06
Tagged date : UTC 2022-06-28 02:33:06
Writing application : HandBrake 1.5.1 2022011000

Video
ID : 1
Format : HEVC
Format/Info : High Efficiency Video Coding
Format profile : [email protected]@Main
Codec ID : hvc1
Codec ID/Info : High Efficiency Video Coding
Duration : 44 min 57 s
Source duration : 44 min 57 s
Bit rate : 1 913 kb/s
Maximum bit rate : 2 003 kb/s
Width : 1 920 pixels
Height : 1 080 pixels
Display aspect ratio : 16:9
Frame rate mode : Constant
Frame rate : 50.000 FPS
Standard : Component
Color space : YUV
Chroma subsampling : 4:2:0
Bit depth : 8 bits
Bits/(Pixel*Frame) : 0.018
Stream size : 615 MiB (88%)
Source stream size : 644 MiB (92%)
Encoded date : UTC 2022-06-28 02:33:06
Tagged date : UTC 2022-06-28 02:33:06
Color range : Limited
Color primaries : BT.709
Transfer characteristics : BT.709
Matrix coefficients : BT.709
mdhd_Duration : 2697040
Codec configuration box : hvcC

Audio
ID : 2
Format : AAC LC
Format/Info : Advanced Audio Codec Low Complexity
Codec ID : mp4a-40-2
Duration : 44 min 57 s
Source duration : 44 min 57 s
Bit rate mode : Constant
Bit rate : 161 kb/s
Channel(s) : 2 channels
Channel layout : L R
Sampling rate : 48.0 kHz
Frame rate : 46.875 FPS (1024 SPF)
Compression mode : Lossy
Stream size : 51.7 MiB (7%)
Source stream size : 51.7 MiB (7%)
Title : Stereo
Default : Yes
Alternate group : 1
Encoded date : UTC 2022-06-28 02:33:06
Tagged date : UTC 2022-06-28 02:33:06
mdhd_Duration : 2697024

Text
ID : 3
Format : Timed Text
Muxing mode : sbtl
Codec ID : tx3g
Duration : 23 min 58 s
Bit rate mode : Variable
Bit rate : 131 b/s
Stream size : 23.0 KiB (0%)
Language : English
Default : Yes
Forced : No
Alternate group : 3
Encoded date : UTC 2022-06-28 02:33:06
Tagged date : UTC 2022-06-28 02:33:06
Screenshots:








Files:

Police.Interceptors.Season.1.Episode.2.H265.1080p.WEBRip.EzzRips
  • Police.Interceptors.Season.1.Episode.2.H265.1080p.WEBRip.EzzRips.m4v (697.8 MB)

There are currently no comments. Feel free to leave one :)

Code:

  • udp://tracker.opentrackr.org:1337/announce
  • http://tracker.files.fm:6969/announce
  • udp://fe.dealclub.de:6969/announce
  • udp://movies.zsw.ca:6969/announce
  • udp://tracker.leech.ie:1337/announce
  • udp://public.publictracker.xyz:6969/announce
  • udp://tracker.publictracker.xyz:6969/announce
  • udp://tracker.0x.tf:6969/announce
  • udp://tracker.altrosky.nl:6969/announce
  • udp://opentracker.i2p.rocks:6969/announce
  • udp://vibe.sleepyinternetfun.xyz:1738/announce
  • udp://tracker.torrent.eu.org:451/announce