TTC - Apocalypse - Controversies and Meaning in Western History

  • Category Documentaries
  • Type Documentary
  • Language English
  • Total size 7.0 GB
  • Uploaded By An0mal1
  • Downloads 234
  • Last checked 1 month ago
  • Date uploaded 1 month ago
  • Seeders 9
  • Leechers 3

Infohash : 01A4E0C9A666444105D89775C8722CEC0CF9F64B




Presenting one of the best TTC courses I've recently enjoyed (even better than Ehrman, though obviously much more limited in scope)" The Apocalypse: Controversies and Meaning in Western History, by Craig R. Koester.

What are we to make of the book of Revelation, with all its dramatic events and rich symbolism? Get an authoritative guide to this extraordinary work in 24 thought-provoking and enlightening lectures, divided into three parts: the historical and intellectual background of the Apocalypse; a close reading of John's text, focusing on the meaning of its images; and the wide-ranging impact of the book on Christian and Western history.

Throughout these lectures, Professor Koester focuses on what John actually wrote in the Apocalypse, what his situation tells us about his meaning, how that meaning can be applied to our own lives, and how contemporary biblical scholars relate Revelation to the modern world. He also introduces major figures in history who have been powerfully drawn to the Apocalypse, among them St. Augustine (who saw it as timeless and symbolic rather than literal), Martin Luther (who decoded it to reach a remarkable theological insight), and Sojourner Truth (who was inspired by the book to work tirelessly for women's rights and the abolition of slavery).

Describing the Apocalypse as a roller coaster that hurtles you down into the abyss amid scenes of monsters and plagues, only to send you flying upward toward views of pure light, Professor Koester stresses that if you are reading Revelation and want to despair, then you've stopped reading too soon. You need to turn the page and look to the next chapter, because there will be a wonderful message of hope waiting for you. And as you learn with this lecture series, you'll find that the Apocalypse you've heard about pales beside the real one.

Episodes include:

1 Revelation and the Apocalyptic Tradition
2 Apocalyptic Worldview in Judaism
3 Apocalyptic Dimension of Early Christianity
4 Origins of the Book of Revelation
5 Issues Facing Revelation’s First Readers
6 God, the Lamb, and the Seven Seals
7 Seven Trumpets, Temple, and Celebration
8 The Dragon and the Problem of Evil
9 The Beasts and Evil in the Political Sphere
10 The Harlot and the Imperial Economy
11 The Battle, the Kingdom, and Last Judgment
12 New Creation and New Jerusalem
13 Antichrist and the Millennium
14 Revelation’s Place in the Christian Bible
15 The Apocalypse and Spiritual Life
16 The Key to the Meaning of History
17 Apocalyptic Fervor in the Late Middle Ages
18 Luther, Radicals, and Roman Catholics
19 Revelation Takes Musical Form
20 Revelation in African American Culture
21 The Apocalypse and Social Progress
22 Awaiting the End in 1844 and Beyond
23 Rapture, Tribulation, and Armageddon
24 The Modern Apocalyptic Renaissance

https://www.reddit.com/user/ConspiracyTorrents/posts/








Quote:

General
Complete name : D:\upload\TTC - Apocalypse - Controversies and Meaning in Western History\1. Revelation and the Apocalyptic Tradition.avi
Format : AVI
Format/Info : Audio Video Interleave
File size : 306 MiB
Duration : 31 min 50 s
Overall bit rate : 1 342 kb/s
Writing application : Lavf51.12.1

Video
ID : 0
Format : xvid
Codec ID : xvid
Duration : 31 min 50 s
Bit rate : 1 201 kb/s
Width : 640 pixels
Height : 480 pixels
Display aspect ratio : 4:3
Frame rate : 29.970 (30000/1001) FPS
Bits/(Pixel*Frame) : 0.130
Stream size : 273 MiB (89%)

Audio
ID : 1
Format : MPEG Audio
Format version : Version 1
Format profile : Layer 3
Format settings : Joint stereo / MS Stereo
Codec ID : 55
Codec ID/Hint : MP3
Duration : 31 min 50 s
Bit rate mode : Constant
Bit rate : 128 kb/s
Channel(s) : 2 channels
Sampling rate : 44.1 kHz
Compression mode : Lossy
Stream size : 29.1 MiB (10%)
Alignment : Aligned on interleaves
Interleave, duration : 26 ms (0.78 video frame)
Writing library : LAME3.97

Files:

TTC - Apocalypse - Controversies and Meaning in Western History
  • 1. Revelation and the Apocalyptic Tradition.avi (305.6 MB)
  • 2. Apocalyptic Worldview in Judaism.avi (291.9 MB)
  • 3. Apocalyptic Dimension of Early Christianity.avi (286.3 MB)
  • 4. Origins of the Book of Revelation.avi (280.2 MB)
  • 5. Issues Facing Revelation's First Readers.avi (288.3 MB)
  • 6. God, the Lamb, and the Seven Seals.avi (299.1 MB)
  • 7. Seven Trumpets, Temple, and Celebration.avi (292.9 MB)
  • 8. The Dragon and the Problem of Evil.avi (304.3 MB)
  • 9. The Beasts and Evil in the Political Sphere.avi (288.5 MB)
  • 10. The Harlot and the Imperial Economy.avi (309.7 MB)
  • 11. The Battle, the Kingdom, and Last Judgment.avi (297.4 MB)
  • 12. New Creation and New Jerusalem.avi (304.7 MB)
  • 13. Antichrist and the Millennium.avi (303.5 MB)
  • 14. Revelation's Place in the Christian Bible.avi (294.8 MB)
  • 15. The Apocalypse and Spiritual Life.avi (296.4 MB)
  • 16. The Key to the Meaning of History.avi (300.7 MB)
  • 17. Apocalyptic Fervor in the Late Middle Ages.avi (299.4 MB)
  • 18. Luther, Radicals, and Roman Catholics.avi (295.3 MB)
  • 19. Revelation Takes Musical Form.avi (304.7 MB)
  • 20. Revelation in African American Culture.avi (298.3 MB)
  • 21. The Apocalypse and Social Progress.avi (299.1 MB)
  • 22. Awaiting the End in 1844 and Beyond.avi (299.1 MB)
  • 23. Rapture, Tribulation, and Armageddon.avi (297.6 MB)
  • 24. The Modern Apocalyptic Renaissance.avi (303.4 MB)
  • Poster.jpg (141.0 KB)
  • TTC - Apocalypse - Controversies and Meaning in Western History.PDF (2.3 MB)

Comments

Code:

  • udp://tracker.tiny-vps.com:6969/announce
  • udp://fasttracker.foreverpirates.co:6969/announce
  • udp://tracker.opentrackr.org:1337/announce
  • udp://explodie.org:6969/announce
  • udp://open.stealth.si:80/announce
  • udp://tracker.cyberia.is:6969/announce
  • udp://ipv4.tracker.harry.lu:80/announce
  • udp://tracker.uw0.xyz:6969/announce
  • udp://tracker.dler.org:6969/announce
  • udp://9.rarbg.to:2710/announce
  • udp://fe.dealclub.de:6969/announce
  • udp://code2chicken.nl:6969/announce
  • udp://tracker.0x.tf:6969/announce
  • http://p2p.arenabg.ch:2710/2fe5d3a4213ef551d6a111e0aae91871/announce
  • http://p2p.arenabg.com:2710/2fe5d3a4213ef551d6a111e0aae91871/announce