The.Owl.House.S02E19.O.Titan.Where.Art.Thou.720p.HULU.WEBRip.AAC2...

  • Category TV
  • Type HD
  • Language English
  • Total size 255.5 MB
  • Uploaded By TheMorozko
  • Downloads 127
  • Last checked 26 minutes ago
  • Date uploaded 1 week ago
  • Seeders 136
  • Leechers 22

Infohash : F96DAD5AA68602CC95136D08C1CDFBCFD813F000


Screens... (click to enlarge):





The.Owl.House.S02E19.O.Titan.Where.Art.Thou.720p.HULU.WEBRip.AAC2.0.H264-LAZY

Infolink -> https://www.imdb.com/title/tt8050756/

Quote:

Mediainfo
Video
ID : 1
Format : AVC
Format/Info : Advanced Video Codec
Format profile : [email protected]
Format settings : CABAC / 5 Ref Frames
Format settings, CABAC : Yes
Format settings, Reference frames : 5 frames
Codec ID : V_MPEG4/ISO/AVC
Duration : 22 min 34 s
Bit rate : 1 517 kb/s
Width : 1 280 pixels
Height : 720 pixels
Display aspect ratio : 16:9
Frame rate mode : Constant
Frame rate : 23.976 (24000/1001) FPS
Color space : YUV
Chroma subsampling : 4:2:0
Bit depth : 8 bits
Scan type : Progressive
Bits/(Pixel*Frame) : 0.069
Stream size : 245 MiB (96%)
Default : Yes
Forced : No

Audio
ID : 2
Format : AAC LC SBR
Format/Info : Advanced Audio Codec Low Complexity with Spectral Band Replication
Commercial name : HE-AAC
Format settings : Explicit
Codec ID : A_AAC-2
Duration : 22 min 34 s
Bit rate : 64.0 kb/s
Channel(s) : 2 channels
Channel layout : L R
Sampling rate : 48.0 kHz
Frame rate : 23.438 FPS (2048 SPF)
Compression mode : Lossy
Stream size : 10.3 MiB (4%)
Language : English
Default : Yes
Forced : No

Text
ID : 3
Format : UTF-8
Codec ID : S_TEXT/UTF8
Codec ID/Info : UTF-8 Plain Text
Duration : 21 min 57 s
Bit rate : 83 b/s
Count of elements : 437
Stream size : 13.5 KiB (0%)
Language : English
Default : No
Forced : No

Files:

The.Owl.House.S02E19.O.Titan.Where.Art.Thou.720p.HULU.WEBRip.AAC2.0.H264-LAZY[rarbg]
  • RARBG.txt (0.0 KB)
  • RARBG_DO_NOT_MIRROR.exe (0.1 KB)
  • The.Owl.House.S02E19.O.Titan.Where.Art.Thou.720p.HULU.WEB-DL.AAC2.0.H.264-LAZY.mkv (255.5 MB)

There are currently no comments. Feel free to leave one :)

Code:

  • http://tracker.trackerfix.com:80/announce
  • udp://9.rarbg.me:2730/announce
  • udp://9.rarbg.to:2930/announce
  • udp://tracker.fatkhoala.org:13790/announce
  • udp://tracker.slowcheetah.org:14750/announce