Thar (2022) Hindi 1080p WEBRip DD 5.1 ESub

  • Category Movies
  • Type Bollywood
  • Language Hindi
  • Total size 2.0 GB
  • Uploaded By krishh1337
  • Downloads 18136
  • Last checked 1 week ago
  • Date uploaded 2 weeks ago
  • Seeders 195
  • Leechers 39

Thar

Thriller

A veteran cop sees the chance to prove himself when murder and a stranger's grisly torture plot shake the walls of a sleepy desert town.

Infohash : E6363CB204A6288E0D423977CB5344F929E1294E




Video
ID : 1
Format : AVC
Format/Info : Advanced Video Codec
Format profile : [email protected]
Format settings : CABAC / 4 Ref Frames
Format settings, CABAC : Yes
Format settings, Reference frames : 4 frames
Codec ID : V_MPEG4/ISO/AVC
Duration : 1 h 48 min
Bit rate : 2 500 kb/s
Width : 1 920 pixels
Height : 1 080 pixels

Audio
ID : 2
Format : E-AC-3
Format/Info : Enhanced AC-3
Commercial name : Dolby Digital Plus
Codec ID : A_EAC3
Duration : 1 h 48 min
Bit rate mode : Constant
Bit rate : 192 kb/s
Channel(s) : 6 channels
Channel layout : L R C LFE Ls Rs
Sampling rate : 48.0 kHz
Frame rate : 31.250 FPS (1536 SPF)
Compression mode : Lossy
Stream size : 149 MiB (7%)
Language : Hindi
Service kind : Complete Main
Default : Yes
Forced : No

Text #3
ID : 3
Format : UTF-8
Codec ID : S_TEXT/UTF8
Codec ID/Info : UTF-8 Plain Text
Duration : 1 h 41 min
Bit rate : 31 b/s
Count of elements : 830
Stream size : 23.7 KiB (0%)
Language : English

Files:

  • Thar (2022) Hindi 1080p WEBRip DD 5.1 ESub.mkv (2.0 GB)

There are currently no comments. Feel free to leave one :)

Code:

  • udp://tracker.tiny-vps.com:6969/announce
  • udp://tracker.torrent.eu.org:451/announce
  • udp://exodus.desync.com:6969/announce
  • udp://explodie.org:6969/announce
  • udp://tracker.opentrackr.org:1337/announce
  • http://t.nyaatracker.com:80/announce
  • udp://open.stealth.si:80/announce
  • http://tracker.dler.org:6969/announce
  • udp://ipv4.tracker.harry.lu:80/announce
  • http://vps02.net.orel.ru:80/announce
  • udp://vibe.sleepyinternetfun.xyz:1738/announce
  • udp://tracker.bitsearch.to:1337/announce
  • udp://inferno.demonoid.is:3391/announce
  • udp://www.torrent.eu.org:451/announce
  • udp://open.tracker.cl:1337/announce