Radhe Shyam (2022) NF Hindi 1080p WEBRip x264 DD 5.1 ESub

  • Category Movies
  • Type Bollywood
  • Language Hindi
  • Total size 2.6 GB
  • Uploaded By krishh1337
  • Downloads 11286
  • Last checked 1 week ago
  • Date uploaded 2 weeks ago
  • Seeders 115
  • Leechers 27

Radhe Shyam

DramaRomance

Vikramaditya, a world-renowned palmist, believes love does not exist in his stars, until he meets Prerana. But when destiny tries to pull them apart, will love prevail?

Infohash : D0DB2970055258F855F7440A1629F30634149312




Video
ID : 1
Format : AVC
Format/Info : Advanced Video Codec
Format profile : [email protected]
Format settings : CABAC / 2 Ref Frames
Format settings, CABAC : Yes
Format settings, Reference frames : 2 frames
Codec ID : V_MPEG4/ISO/AVC
Duration : 2 h 18 min
Bit rate : 2 500 kb/s
Width : 1 920 pixels
Height : 804 pixels

Audio
ID : 2
Format : E-AC-3
Format/Info : Enhanced AC-3
Commercial name : Dolby Digital Plus
Codec ID : A_EAC3
Duration : 2 h 18 min
Bit rate mode : Constant
Bit rate : 192 kb/s
Channel(s) : 6 channels
Channel layout : L R C LFE Ls Rs
Sampling rate : 48.0 kHz
Frame rate : 31.250 FPS (1536 SPF)
Compression mode : Lossy
Stream size : 191 MiB (7%)
Language : Hindi


Text #3
ID : 5
Format : UTF-8
Codec ID : S_TEXT/UTF8
Codec ID/Info : UTF-8 Plain Text
Duration : 2 h 15 min
Bit rate : 40 b/s
Count of elements : 1338
Stream size : 39.9 KiB (0%)
Title : English
Language : English

Files:

  • Radhe Shyam (2022) NF Hindi 1080p WEBRip x264 DD 5.1 ESub.mkv (2.6 GB)

Comments

Code:

  • udp://tracker.tiny-vps.com:6969/announce
  • udp://tracker.torrent.eu.org:451/announce
  • udp://exodus.desync.com:6969/announce
  • udp://explodie.org:6969/announce
  • udp://tracker.opentrackr.org:1337/announce
  • http://t.nyaatracker.com:80/announce
  • udp://open.stealth.si:80/announce
  • http://tracker.dler.org:6969/announce
  • udp://ipv4.tracker.harry.lu:80/announce
  • http://vps02.net.orel.ru:80/announce
  • udp://vibe.sleepyinternetfun.xyz:1738/announce
  • udp://tracker.bitsearch.to:1337/announce
  • udp://inferno.demonoid.is:3391/announce
  • udp://www.torrent.eu.org:451/announce
  • udp://open.tracker.cl:1337/announce