Moon.Knight.S01E05.WEBRip.x264-ION10

  • Category TV
  • Type SD
  • Language English
  • Total size 443.1 MB
  • Uploaded By TheMorozko
  • Downloads 17911
  • Last checked 2 weeks ago
  • Date uploaded 3 weeks ago
  • Seeders 1082
  • Leechers 158

Infohash : F0D19087126E53E06991BF4DEC0E72CD81166969


Screens... (click to enlarge):











Infolink -> https://www.imdb.com/title/tt10234724/

Quote:

Mediainfo
Video
ID : 1
Format : AVC
Format/Info : Advanced Video Codec
Format profile : [email protected]
Format settings : CABAC / 5 Ref Frames
Format settings, CABAC : Yes
Format settings, Reference frames : 5 frames
Codec ID : avc1
Codec ID/Info : Advanced Video Coding
Duration : 47 min 15 s
Bit rate : 1 046 kb/s
Nominal bit rate : 1 100 kb/s
Width : 720 pixels
Height : 400 pixels
Display aspect ratio : 16:9
Frame rate mode : Constant
Frame rate : 24.000 FPS
Color space : YUV
Chroma subsampling : 4:2:0
Bit depth : 8 bits
Scan type : Progressive
Bits/(Pixel*Frame) : 0.151
Stream size : 354 MiB (80%)
Title : RARBG - Moon.Knight.S01E05.WEBRip.x264-ION10
Writing library : x264 core 152 r2851M ba24899
Encoding settings : cabac=1 / ref=5 / deblock=1:-1:-1 / analyse=0x3:0x113 / me=umh / subme=9 / psy=1 / psy_rd=1.00:0.15 / mixed_ref=1 / me_range=16 / chroma_me=1 / trellis=2 / 8x8dct=1 / cqm=0 / deadzone=21,11 / fast_pskip=1 / chroma_qp_offset=-3 / threads=12 / lookahead_threads=1 / sliced_threads=0 / nr=0 / decimate=1 / interlaced=0 / bluray_compat=0 / constrained_intra=0 / bframes=3 / b_pyramid=2 / b_adapt=2 / b_bias=0 / direct=3 / weightb=1 / open_gop=0 / weightp=2 / keyint=250 / keyint_min=24 / scenecut=40 / intra_refresh=0 / rc_lookahead=50 / rc=abr / mbtree=1 / bitrate=1100 / ratetol=1.0 / qcomp=0.60 / qpmin=0 / qpmax=69 / qpstep=4 / ip_ratio=1.40 / aq=1:1.00
Language : English
Encoded date : UTC 2022-04-27 06:59:37
Tagged date : UTC 2022-04-27 06:59:37
Codec configuration box : avcC

Audio
ID : 2
Format : AAC LC
Format/Info : Advanced Audio Codec Low Complexity
Codec ID : mp4a-40-2
Duration : 47 min 15 s
Bit rate mode : Constant
Bit rate : 256 kb/s
Channel(s) : 2 channels
Channel layout : L R
Sampling rate : 48.0 kHz
Frame rate : 46.875 FPS (1024 SPF)
Compression mode : Lossy
Stream size : 86.5 MiB (20%)
Title : RARBG - Moon.Knight.S01E05.WEBRip.x264-ION10
Language : English
Default : Yes
Alternate group : 1
Encoded date : UTC 2022-04-27 06:59:37
Tagged date : UTC 2022-04-27 06:59:37

Files:

Moon.Knight.S01E05.WEBRip.x264-ION10
  • Moon.Knight.S01E05.WEBRip.x264-ION10.mp4 (442.0 MB)
  • RARBG.txt (0.0 KB)
  • RARBG_DO_NOT_MIRROR.exe (0.1 KB)
  • Subs
    • 10_French.srt (40.9 KB)
    • 11_French.srt (41.2 KB)
    • 12_Hungarian.srt (40.3 KB)
    • 13_Italian.srt (41.7 KB)
    • 14_Japanese.srt (39.8 KB)
    • 15_Korean.srt (42.8 KB)
    • 16_Dutch.srt (34.2 KB)
    • 17_nor.srt (40.7 KB)
    • 18_Polish.srt (39.6 KB)
    • 19_Portuguese.srt (41.8 KB)
    • 20_Portuguese.srt (43.2 KB)
    • 21_Romanian.srt (41.7 KB)
    • 22_slo.srt (41.9 KB)
    • 23_Swedish.srt (40.5 KB)
    • 24_Turkish.srt (41.4 KB)
    • 25_Chinese.srt (38.2 KB)
    • 26_Chinese.srt (37.5 KB)
    • 27_Chinese.srt (39.9 KB)
    • 2_English.srt (45.4 KB)
    • 3_Czech.srt (40.2 KB)
    • 4_Danish.srt (31.4 KB)
    • 5_German.srt (39.3 KB)
    • 6_Greek.srt (55.5 KB)
    • 7_Spanish.srt (40.6 KB)
    • 8_Spanish.srt (41.9 KB)
    • 9_Finnish.srt (38.6 KB)

There are currently no comments. Feel free to leave one :)

Code:

  • http://tracker.trackerfix.com:80/announce
  • udp://9.rarbg.me:2950/announce
  • udp://9.rarbg.to:2750/announce
  • udp://tracker.fatkhoala.org:13740/announce
  • udp://tracker.slowcheetah.org:14740/announce