Shaadisthan.2021.1080p.DSNP.WEB-DL.DD+5.1.x264 - SunGeorge

  • Category Movies
  • Type HD
  • Language Hindi
  • Total size 2.3 GB
  • Uploaded By Sungeorge
  • Downloads 1463
  • Last checked 2 days ago
  • Date uploaded 1 week ago
  • Seeders 23
  • Leechers 7

Shaadisthan

AdventureComedyDramaMusic

An accidental road trip with a quirky wedding band forces Arshie’s orthodox parents to open their eyes to a new way of life.

Infohash : 760F54064314A2C5A571BD33CFAE349CE11931E3

Shaadisthan.2021.1080p.DSNP.WEB-DL.DD+5.1.x264 - SunGeorge





[quote]


Shaadisthan.2021.1080p.DSNP.WEB-DL.DD+5.1.x264 - SunGeorge










Code:

General
Complete name : Shaadisthan.2021.1080p.DSNP.WEB-DL.DD+5.1.x264.mkv
Format : Matroska
Format version : Version 4
File size : 2.26 GiB
Duration : 1 h 33 min
Overall bit rate : 3 477 kb/s
Movie name : MovieAIO.me
Encoded date : UTC 2021-06-11 14:13:21
Writing application : mkvmerge v57.0.0 ('Till The End') 64-bit
Writing library : libebml v1.4.2 + libmatroska v1.6.4

Video
ID : 1
Format : AVC
Format/Info : Advanced Video Codec
Format profile : [email protected]
Format settings : CABAC / 4 Ref Frames
Format settings, CABAC : Yes
Format settings, Reference frames : 4 frames
Codec ID : V_MPEG4/ISO/AVC
Duration : 1 h 33 min
Bit rate : 3 300 kb/s
Width : 1 920 pixels
Height : 1 080 pixels
Display aspect ratio : 16:9
Frame rate mode : Constant
Frame rate : 24.000 FPS
Color space : YUV
Chroma subsampling : 4:2:0
Bit depth : 8 bits
Scan type : Progressive
Bits/(Pixel*Frame) : 0.066
Stream size : 2.13 GiB (94%)
Title : MovieAIO.me
Writing library : x264 core 155 r2917+2 f192430
Encoding settings : cabac=1 / ref=4 / deblock=1:-1:-1 / analyse=0x3:0x113 / me=hex / subme=8 / psy=1 / psy_rd=1.00:0.15 / mixed_ref=1 / me_range=16 / chroma_me=1 / trellis=2 / 8x8dct=1 / cqm=0 / deadzone=21,11 / fast_pskip=1 / chroma_qp_offset=-3 / threads=14 / lookahead_threads=2 / sliced_threads=0 / nr=0 / decimate=1 / interlaced=0 / bluray_compat=0 / constrained_intra=0 / bframes=3 / b_pyramid=2 / b_adapt=2 / b_bias=0 / direct=3 / weightb=1 / open_gop=0 / weightp=2 / keyint=48 / keyint_min=25 / scenecut=0 / intra_refresh=0 / rc_lookahead=48 / rc=2pass / mbtree=1 / bitrate=3300 / ratetol=1.0 / qcomp=0.60 / qpmin=0 / qpmax=69 / qpstep=4 / cplxblur=20.0 / qblur=0.5 / vbv_maxrate=4950 / vbv_bufsize=6600 / nal_hrd=none / filler=0 / ip_ratio=1.40 / aq=3:1.00
Default : Yes
Forced : No

Audio
ID : 2
Format : E-AC-3
Format/Info : Enhanced AC-3
Commercial name : Dolby Digital Plus
Codec ID : A_EAC3
Duration : 1 h 33 min
Bit rate mode : Constant
Bit rate : 192 kb/s
Channel(s) : 6 channels
Channel layout : L R C LFE Ls Rs
Sampling rate : 48.0 kHz
Frame rate : 31.250 FPS (1536 SPF)
Compression mode : Lossy
Stream size : 128 MiB (6%)
Title : MovieAIO.me
Language : Hindi
Service kind : Complete Main
Default : Yes
Forced : No

Text
ID : 3
Format : UTF-8
Codec ID : S_TEXT/UTF8
Codec ID/Info : UTF-8 Plain Text
Duration : 1 h 27 min
Bit rate : 51 b/s
Count of elements : 1237
Stream size : 32.9 KiB (0%)
Title : English
Language : English
Default : No
Forced : No



[

Files:

Shaadisthan.2021.1080p.DSNP.WEB-DL.DD+5.1.x264
  • Shaadisthan.2021.1080p.DSNP.WEB-DL.DD+5.1.x264.mkv (2.3 GB)
  • Download torrent with SonicBit.txt (0.1 KB)

Comments

Code:

  • udp://p4p.arenabg.ch:1337/announce
  • http://p4p.arenabg.com:1337/announce
  • udp://tracker.internetwarriors.net:1337/announce
  • udp://tracker.opentrackr.org:1337/announce
  • udp://exodus.desync.com:6969/announce
  • udp://tracker.openbittorrent.com:6969/announce
  • udp://retracker.lanta-net.ru:2710/announce
  • udp://open.stealth.si:80/announce
  • udp://www.torrent.eu.org:451/announce
  • udp://tracker.torrent.eu.org:451/announce
  • udp://zephir.monocul.us:6969/announce
  • udp://z.mercax.com:53/announce
  • udp://wassermann.online:6969/announce
  • udp://vibe.community:6969/announce
  • udp://valakas.rollo.dnsabr.com:2710/announce
  • udp://udp-tracker.shittyurl.org:6969/announce
  • udp://tracker2.dler.org:80/announce
  • udp://tracker1.bt.moack.co.kr:80/announce
  • udp://tracker0.ufibox.com:6969/announce
  • udp://tracker.zerobytes.xyz:1337/announce