Triple 9 (2016) 720p BluRay x264 Esubs [Dual Audio] [Hindi ORG DD...

  • Category Movies
  • Type Dubs/Dual Audio
  • Language Hindi
  • Total size 1.1 GB
  • Uploaded By DESIRE123
  • Downloads 13526
  • Last checked 2 days ago
  • Date uploaded 1 week ago
  • Seeders 212
  • Leechers 11

Triple 9

CrimeDramaThriller

In TRIPLE 9, a crew of dirty cops is blackmailed by the Russian mob to execute a virtually impossible heist. The only way to pull it off is to manufacture a 999, police code for “officer down”. Their plan is turned upside down when the unsuspecting rookie they set up to die foils the attack, triggering a breakneck, action-packed finale filled with double-crosses, greed and revenge.

Infohash : 096EF64D9258FCD689788E030DAED5B19A703E84

Triple 9 (2016) 720p BluRay x264 Esubs [Dual Audio] [Hindi ORG DD 2.0 - English] - 1 GB


This Movie Encoded by DesireMoVies.BUZZ


POSTER



INFO


General
Format                         : Matroska
Format version                 : Version 4
File size                      : 1.08 GiB
Duration                       : 1 h 55 min
Overall bit rate               : 1 340 kb/s

Video
ID                             : 1
Format                         : AVC
Format/Info                    : Advanced Video Codec
Format profile                 : [email protected]
Format settings                : CABAC / 12 Ref Frames
Format settings, CABAC         : Yes
Format settings, Reference fra : 12 frames
Codec ID                       : V_MPEG4/ISO/AVC
Duration                       : 1 h 55 min
Bit rate                       : 1 057 kb/s
Width                          : 1 280 pixels
Height                         : 536 pixels
Display aspect ratio           : 2.40:1
Frame rate mode                : Constant
Frame rate                     : 23.976 (24000/1001) FPS
Color space                    : YUV
Chroma subsampling             : 4:2:0
Bit depth                      : 8 bits
Language                       : English
Default                        : Yes
Forced                         : No

Audio #1
ID                             : 2
Format                         : AAC LC
Format/Info                    : Advanced Audio Codec Low Complexity
Codec ID                       : A_AAC-2
Duration                       : 1 h 55 min
Bit rate                       : 192 kb/s
Channel(s)                     : 2 channels
Channel layout                 : L R
Sampling rate                  : 48.0 kHz
Frame rate                     : 46.875 FPS (1024 SPF)
Compression mode               : Lossy
Stream size                    : 159 MiB (14%)
Title                          : DesireMoVies.Buzz
Language                       : Hindi
Default                        : Yes
Forced                         : No

Audio #2
ID                             : 3
Format                         : AAC LC
Format/Info                    : Advanced Audio Codec Low Complexity
Codec ID                       : A_AAC-2
Duration                       : 1 h 55 min
Bit rate                       : 88.4 kb/s
Channel(s)                     : 2 channels
Channel layout                 : L R
Sampling rate                  : 48.0 kHz
Frame rate                     : 46.875 FPS (1024 SPF)
Compression mode               : Lossy
Delay relative to video        : 9 ms
Stream size                    : 73.2 MiB (7%)
Title                          : DesireMoVies.Buzz
Language                       : English
Default                        : No
Forced                         : No

Text
ID                             : 4
Format                         : UTF-8
Codec ID                       : S_TEXT/UTF8
Codec ID/Info                  : UTF-8 Plain Text
Duration                       : 1 h 54 min
Bit rate                       : 49 b/s
Count of elements              : 1404
Stream size                    : 41.9 KiB (0%)
Title                          : DesireMoVies.Buzz
Language                       : English
Default                        : Yes
Forced                         : No

Menu
00:00:00.000                   : en:Chapter 01
00:05:34.459                   : en:Chapter 02
00:12:17.820                   : en:Chapter 03
00:15:57.039                   : en:Chapter 04
00:20:25.724                   : en:Chapter 05
00:28:39.467                   : en:Chapter 06
00:34:28.941                   : en:Chapter 07
00:39:29.575                   : en:Chapter 08
00:44:32.878                   : en:Chapter 09
00:48:10.888                   : en:Chapter 10
00:56:32.639                   : en:Chapter 11
01:02:03.177                   : en:Chapter 12
01:07:03.477                   : en:Chapter 13
01:12:12.953                   : en:Chapter 14
01:16:22.494                   : en:Chapter 15
01:21:41.438                   : en:Chapter 16
01:26:30.101                   : en:Chapter 17
01:32:35.675                   : en:Chapter 18
01:41:34.254                   : en:Chapter 19
01:50:13.189                   : en:Chapter 20


SCREENSHOT



Keep Visit DesireMoVies.Monster For More Exusive MoVies


Files:

Triple 9 (2016) 720p BluRay x264 Esubs [Dual Audio] [Hindi ORG DD 2.0 - English]
  • Triple9 720p BR ORG DesireMoVies.Buzz.mkv (1.1 GB)

Comments

Code:

  • udp://tracker.openbittorrent.com:80/announce
  • udp://tracker.opentrackr.org:1337/announce