5.Is.The.Perfect.Number.2019.1080p.BluRay.x264.AC3.HORiZON-ArtSub...

  • Category Movies
  • Type HD
  • Language Italian
  • Total size 2.6 GB
  • Uploaded By noriegaRJ
  • Downloads 452
  • Last checked 6 days ago
  • Date uploaded 1 week ago
  • Seeders 12
  • Leechers 0

5 Is the Perfect Number

DramaThrillerCrimeAction

Peppino, a retired hitman for the Camorra, has now fully passed on his job and know-how to his single son, Nino. But when Nino is brutally assassinated, the old man is back in business to take revenge. Aside his everlasting love Rita and his longtime henchman Totò, Peppino will go to any lengths, even if it means bringing the Camorra down.

Infohash : 9F30C47D1293B80BA8627F0496CA1C880464FC1F

Release: 5.Is.The.Perfect.Number.2019.1080p.BluRay.x264.AC3.HORiZON-ArtSubs



IMDB: https://www.imdb.com/title/tt8351646

Subtitle: Italian (soft)

Plot: Based on the namesake book, the movie follows Peppino, an old hit man in a '70 Naples, forced to come back in action by the murder of his son. This tragic event also arises reflections on life and on the society in all the characters. With Toni Servillo and Valeria Golino.


General
Complete name : 5.Is.The.Perfect.Number.2019.1080p.BluRay.x264.AC3.HORiZON-ArtSubs.mkv
Format : Matroska
Format version : Version 4
File size : 2.64 GiB
Duration : 1 h 46 min
Overall bit rate : 3 542 kb/s
Encoded date : UTC 2021-05-03 00:17:05
Writing application : mkvmerge v56.0.0 ('Strasbourg / St. Denis') 64-bit
Writing library : libebml v1.4.2 + libmatroska v1.6.4

Video
ID : 1
Format : AVC
Format/Info : Advanced Video Codec
Format profile : [email protected]
Format settings : CABAC / 4 Ref Frames
Format settings, CABAC : Yes
Format settings, Reference : 4 frames
Codec ID : V_MPEG4/ISO/AVC
Duration : 1 h 46 min
Bit rate : 3 100 kb/s
Width : 1 920 pixels
Height : 804 pixels
Display aspect ratio : 2.40:1
Frame rate mode : Constant
Frame rate : 24.000 FPS
Color space : YUV
Chroma subsampling : 4:2:0
Bit depth : 8 bits
Scan type : Progressive
Bits/(Pixel*Frame) : 0.084
Stream size : 2.31 GiB (87%)
Writing library : x264 core 157 r2935 545de2f
Encoding settings : cabac=1 / ref=4 / deblock=1:-2:-2 / analyse=0x3:0x133 / me=umh / subme=10 / psy=1 / psy_rd=1.00:0.25 / mixed_ref=1 / me_range=32 / chroma_me=1 / trellis=2 / 8x8dct=1 / cqm=0 / deadzone=6,6 / fast_pskip=1 / chroma_qp_offset=-4 / threads=6 / lookahead_threads=1 / sliced_threads=0 / nr=0 / decimate=0 / interlaced=0 / bluray_compat=0 / constrained_intra=0 / bframes=8 / b_pyramid=2 / b_adapt=2 / b_bias=0 / direct=3 / weightb=1 / open_gop=0 / weightp=2 / keyint=240 / keyint_min=24 / scenecut=40 / intra_refresh=0 / rc_lookahead=60 / rc=2pass / mbtree=1 / bitrate=3100 / ratetol=1.0 / qcomp=0.70 / qpmin=0 / qpmax=69 / qpstep=4 / cplxblur=20.0 / qblur=0.5 / vbv_maxrate=25000 / vbv_bufsize=78125 / nal_hrd=none / filler=0 / ip_ratio=1.10 / aq=3:1.20
Default : Yes
Forced : No
Color range : Limited
Color primaries : BT.709
Transfer characteristics : BT.709
Matrix coefficients : BT.709

Audio
ID : 2
Format : AC-3
Format/Info : Audio Coding 3
Commercial name : Dolby Digital
Codec ID : A_AC3
Duration : 1 h 46 min
Bit rate mode : Constant
Bit rate : 448 kb/s
Channel(s) : 6 channels
Channel layout : L R C LFE Ls Rs
Sampling rate : 48.0 kHz
Frame rate : 31.250 FPS (1536 SPF)
Compression mode : Lossy
Delay relative to video : 995 ms
Stream size : 342 MiB (13%)
Language : Italian
Service kind : Complete Main
Default : Yes
Forced : No

Text
ID : 3
Format : UTF-8
Codec ID : S_TEXT/UTF8
Codec ID/Info : UTF-8 Plain Text
Duration : 1 h 34 min
Bit rate : 42 b/s
Count of elements : 805
Stream size : 29.7 KiB (0%)
Language : Italian
Default : No
Forced : No


SCREENSHOTS:





Files:

  • 5.Is.The.Perfect.Number.2019.1080p.BluRay.x264.AC3.HORiZON-ArtSubs.mkv (2.6 GB)

There are currently no comments. Feel free to leave one :)

Code:

  • udp://tracker.openbittorrent.com:80/announce
  • udp://tracker.publicbt.com:80/announce
  • udp://tracker.leechers-paradise.org:6969
  • udp://zer0day.ch:1337
  • udp://open.demonii.com:1337
  • udp://tracker.coppersurfer.tk:6969
  • udp://exodus.desync.com:6969
  • udp://tracker.opentrackr.org:1337/announce
  • udp://tracker.coppersurfer.tk:6969/announce
  • udp://tracker.leechers-paradise.org:6969/announce
  • udp://tracker.zer0day.to:1337/announce