Aurora.Borealis.Eszaki.Feny.2017.1080p.WEB-DL.x264.AC3.HORiZON-Ar...

  • Category Movies
  • Type HD
  • Language Hungarian
  • Total size 2.6 GB
  • Uploaded By noriegaRJ
  • Downloads 222
  • Last checked 2 days ago
  • Date uploaded 1 week ago
  • Seeders 14
  • Leechers 0

Aurora Borealis - Northern Light

Drama

The Aurora Borealis is a story of family that is rich in twists and turns. It breaks the depths of the relationship between mother and daughter. A successful lawyer in Vienna, Olga (Ildikó Tóth) is called back to Hungary when her old mother, Mary (Mari Törőcsik) suddenly falls into a coma. While Mary is floating between life and death, Olga finds a deeply silent secret. The increasingly passionate research leads back to the post-war Europe of the '50s.

Infohash : 31AE580341B814D9F9B3C4A55309FCA335881831

Release: Aurora.Borealis.Eszaki.Feny.2017.1080p.WEB-DL.x264.AC3.HORiZON-ArtSubs



IMDB: https://www.imdb.com/title/tt5027162

Subtitle: English (soft)

Plot: Olga is a successful, workaholic lawyer from Vienna. She discovers a dark family secret that makes her question her whole life. She begins to search for answers, but her mother, Maria has done everything she could to avoid the truth being revealed. While Olga is travelling through her Family's past, she has to face her own life as well. A film by Marta Meszaros


General
Complete name : Aurora.Borealis.Eszaki.Feny.2017.1080p.WEB-DL.x264.AC3.HORiZON-ArtSubs.mkv
Format : Matroska
Format version : Version 4
File size : 2.59 GiB
Duration : 1 h 44 min
Overall bit rate : 3 548 kb/s
Encoded date : UTC 2021-04-28 20:03:19
Writing application : mkvmerge v56.0.0 ('Strasbourg / St. Denis') 64-bit
Writing library : libebml v1.4.2 + libmatroska v1.6.4

Video
ID : 1
Format : AVC
Format/Info : Advanced Video Codec
Format profile : [email protected]
Format settings : CABAC / 4 Ref Frames
Format settings, CABAC : Yes
Format settings, Reference : 4 frames
Codec ID : V_MPEG4/ISO/AVC
Duration : 1 h 44 min
Bit rate : 3 100 kb/s
Width : 1 920 pixels
Height : 802 pixels
Display aspect ratio : 2.40:1
Frame rate mode : Constant
Frame rate : 24.000 FPS
Color space : YUV
Chroma subsampling : 4:2:0
Bit depth : 8 bits
Scan type : Progressive
Bits/(Pixel*Frame) : 0.084
Stream size : 2.26 GiB (87%)
Writing library : x264 core 157 r2935 545de2f
Encoding settings : cabac=1 / ref=4 / deblock=1:-2:-2 / analyse=0x3:0x133 / me=umh / subme=10 / psy=1 / psy_rd=1.00:0.25 / mixed_ref=1 / me_range=32 / chroma_me=1 / trellis=2 / 8x8dct=1 / cqm=0 / deadzone=6,6 / fast_pskip=1 / chroma_qp_offset=-4 / threads=6 / lookahead_threads=1 / sliced_threads=0 / nr=0 / decimate=0 / interlaced=0 / bluray_compat=0 / constrained_intra=0 / bframes=8 / b_pyramid=2 / b_adapt=2 / b_bias=0 / direct=3 / weightb=1 / open_gop=0 / weightp=2 / keyint=240 / keyint_min=24 / scenecut=40 / intra_refresh=0 / rc_lookahead=60 / rc=2pass / mbtree=1 / bitrate=3100 / ratetol=1.0 / qcomp=0.75 / qpmin=0 / qpmax=69 / qpstep=4 / cplxblur=20.0 / qblur=0.5 / vbv_maxrate=25000 / vbv_bufsize=78125 / nal_hrd=none / filler=0 / ip_ratio=1.10 / aq=3:1.20
Default : Yes
Forced : No
Color range : Limited
Color primaries : BT.709
Transfer characteristics : BT.709
Matrix coefficients : BT.709

Audio
ID : 2
Format : AC-3
Format/Info : Audio Coding 3
Commercial name : Dolby Digital
Codec ID : A_AC3
Duration : 1 h 44 min
Bit rate mode : Constant
Bit rate : 448 kb/s
Channel(s) : 6 channels
Channel layout : L R C LFE Ls Rs
Sampling rate : 48.0 kHz
Frame rate : 31.250 FPS (1536 SPF)
Compression mode : Lossy
Delay relative to video : -5 ms
Stream size : 335 MiB (13%)
Language : Hungarian
Service kind : Complete Main
Default : Yes
Forced : No

Text
ID : 3
Format : UTF-8
Codec ID : S_TEXT/UTF8
Codec ID/Info : UTF-8 Plain Text
Duration : 1 h 38 min
Bit rate : 23 b/s
Count of elements : 706
Stream size : 17.2 KiB (0%)
Language : English
Default : Yes
Forced : No


SCREENSHOTS:





Files:

  • Aurora.Borealis.Eszaki.Feny.2017.1080p.WEB-DL.x264.AC3.HORiZON-ArtSubs.mkv (2.6 GB)

There are currently no comments. Feel free to leave one :)

Code:

  • udp://tracker.openbittorrent.com:80/announce
  • udp://tracker.publicbt.com:80/announce
  • udp://tracker.leechers-paradise.org:6969
  • udp://zer0day.ch:1337
  • udp://open.demonii.com:1337
  • udp://tracker.coppersurfer.tk:6969
  • udp://exodus.desync.com:6969
  • udp://tracker.opentrackr.org:1337/announce
  • udp://tracker.coppersurfer.tk:6969/announce
  • udp://tracker.leechers-paradise.org:6969/announce
  • udp://tracker.zer0day.to:1337/announce