Patti Cakes.2017.720p.WEB-DL.H264.AC3-EVO

  • Category Movies
  • Type HD
  • Language English
  • Total size 3.4 GB
  • Uploaded By sub7
  • Downloads 196
  • Last checked 10 hours ago
  • Date uploaded 4 years ago
  • Seeders 7
  • Leechers 0

Patti Cake$

Drama

Straight out of Jersey comes Patricia Dombrowski, a.k.a. Killa P, a.k.a. Patti Cake$, an aspiring rapper fighting through a world of strip malls and strip clubs on an unlikely quest for glory.

Infohash : 93C58037A18C7E2D762BFE15798AE9B73ED8D304


Patti Cakes.2017.720p.WEB-DL.H264.AC3-EVO

ImDb: http://www.imdb.com/title/tt6288250



Complete name : Patti Cakes.2017.720p.WEB-DL.H264.AC3-EVO.mkv
Format : Matroska
Format version : Version 4 / Version 2
File size : 3.41 GiB
Duration : 1 h 49 min
Overall bit rate : 4 470 kb/s
Movie name : EVO
Encoded date : UTC 2017-11-07 08:52:59
Writing application : mkvmerge v6.7.0 ('Back to the Ground') 64bit built on Jan 8 2014 15:10:52
Writing library : libebml v1.3.0 + libmatroska v1.4.1

Video
ID : 1
Format : AVC
Format/Info : Advanced Video Codec
Format profile : [email protected]
Format settings, CABAC : No
Format settings, ReFrames : 2 frames
Codec ID : V_MPEG4/ISO/AVC
Duration : 1 h 49 min
Bit rate : 3 997 kb/s
Width : 1 280 pixels
Height : 692 pixels
Display aspect ratio : 1.85:1
Frame rate mode : Constant
Frame rate : 24.000 FPS
Color space : YUV
Chroma subsampling : 4:2:0
Bit depth : 8 bits
Scan type : Progressive
Bits/(Pixel*Frame) : 0.188
Stream size : 3.05 GiB (89%)
Language : English
Default : Yes
Forced : No
Color range : Limited
Color primaries : BT.709
Transfer characteristics : BT.709
Matrix coefficients : BT.709

Audio
ID : 2
Format : AC-3
Format/Info : Audio Coding 3
Format settings, Endianness : Big
Codec ID : A_AC3
Duration : 1 h 49 min
Bit rate mode : Constant
Bit rate : 384 kb/s
Channel(s) : 6 channels
Channel positions : Front: L C R, Side: L R, LFE
Sampling rate : 48.0 kHz
Frame rate : 31.250 FPS (1536 spf)
Bit depth : 16 bits
Compression mode : Lossy
Stream size : 300 MiB (9%)
Language : English
Service kind : Complete Main
Default : Yes
Forced : No

Menu
00:00:00.000 : en:Chapter 01
00:04:43.283 : en:Chapter 02
00:06:33.977 : en:Chapter 03
00:08:00.063 : en:Chapter 04
00:09:28.860 : en:Chapter 05
00:12:03.097 : en:Chapter 06
00:15:28.093 : en:Chapter 07
00:17:50.026 : en:Chapter 08
00:20:46.869 : en:Chapter 09
00:26:48.730 : en:Chapter 10
00:27:48.289 : en:Chapter 11
00:30:02.881 : en:Chapter 12
00:34:00.076 : en:Chapter 13
00:38:09.825 : en:Chapter 14
00:40:54.906 : en:Chapter 15
00:43:57.463 : en:Chapter 16
00:47:01.814 : en:Chapter 17
00:50:42.201 : en:Chapter 18
00:53:02.132 : en:Chapter 19
00:58:37.175 : en:Chapter 20
01:01:49.200 : en:Chapter 21
01:04:57.263 : en:Chapter 22
01:07:14.608 : en:Chapter 23
01:13:13.049 : en:Chapter 24
01:16:17.024 : en:Chapter 25
01:22:13.380 : en:Chapter 26
01:26:43.733 : en:Chapter 27
01:30:05.309 : en:Chapter 28
01:32:45.427 : en:Chapter 29
01:35:44.522 : en:Chapter 30
01:40:49.577 : en:Chapter 31
01:43:10.593 : en:Chapter 32






Click To View Screenshot

Click To View Screenshot

Click To View Screenshot

Files:

Patti Cakes.2017.720p.WEB-DL.H264.AC3-EVO
  • Patti Cakes.2017.720p.WEB-DL.H264.AC3-EVO.mkv (3.4 GB)
  • Patti Cakes.2017.720p.WEB-DL.H264.AC3-EVO.nfo (0.6 KB)

There are currently no comments. Feel free to leave one :)

Code:

  • udp://tracker.coppersurfer.tk:6969/announce
  • udp://tracker.pirateparty.gr:6969/announce
  • udp://shadowshq.yi.org:6969/announce
  • udp://eddie4.nl:6969/announce
  • udp://tracker.leechers-paradise.org:6969/announce
  • udp://tracker.opentrackr.org:1337/announce
  • udp://p4p.arenabg.ch:1337/announce
  • udp://p4p.arenabg.com:1337/announce
  • udp://9.rarbg.me:2710/announce
  • udp://9.rarbg.to:2710/announce
  • udp://ipv4.tracker.harry.lu:80/announce
  • udp://tracker.grepler.com:6969/announce
  • udp://public.popcorn-tracker.org:6969/announce
  • udp://tracker.opentrackr.org:1337/announce
  • udp://tracker.zer0day.to:1337/announce