Sleight (2016) 1920 x 800 (1080p) x264 Phun Psyz

  • Category Movies
  • Type HD
  • Language English
  • Total size 1.3 GB
  • Uploaded By PhunPsyz
  • Downloads 387
  • Last checked 9 hours ago
  • Date uploaded 4 years ago
  • Seeders 2
  • Leechers 5

Sleight

DramaThrillerActionScience Fiction

A young street magician is left to take care of his little sister after his mother's passing and turns to drug dealing in the Los Angeles party scene to keep a roof over their heads. When he gets into trouble with his supplier, his sister is kidnapped and he is forced to rely on both his sleight of hand and brilliant mind to save her.

Infohash : 8F2DFC498ECCBB097F2AD5CB5BF42EFED545D464


x265 Size, x264 Compatibility, HD Quality

www.imdb.com/title/tt4573516/

A young street magician (Jacob Latimore) is left to care for his little sister after their parents passing, and turns to illegal activities to keep a roof over their heads. When he gets in too deep, his sister is kidnapped, and he is forced to use his magic and brilliant mind to save her.

Source: FGT (7.73 GB)











Format : MPEG-4
Format profile : Base Media / Version 2
Codec ID : mp42 (isom/iso2/avc1/mp41)
File size : 1.27 GiB
Duration : 1 h 29 min
Overall bit rate mode : Variable
Overall bit rate : 2 031 kb/s
Writing application : HandBrake 1.0.7 2017040900

Video
ID : 1
Format : AVC
Format/Info : Advanced Video Codec
Format profile : [email protected]
Format settings, CABAC : Yes
Format settings, ReFrames : 8 frames
Codec ID : avc1
Codec ID/Info : Advanced Video Coding
Duration : 1 h 29 min
Bit rate : 1 864 kb/s
Width : 1 920 pixels
Height : 800 pixels
Display aspect ratio : 2.40:1
Frame rate mode : Variable
Frame rate : 23.976 (24000/1001) FPS
Minimum frame rate : 23.974 FPS
Maximum frame rate : 23.981 FPS
Color space : YUV
Chroma subsampling : 4:2:0
Bit depth : 8 bits
Scan type : Progressive
Bits/(Pixel*Frame) : 0.051
Stream size : 1.16 GiB (92%)
Writing library : x264 core 148 r2708 86b7198
Color range : Limited
Color primaries : BT.709
Transfer characteristics : BT.709
Matrix coefficients : BT.709
Menus : 3

Audio
ID : 2
Format : AAC
Format/Info : Advanced Audio Codec
Format profile : LC
Codec ID : 40
Duration : 1 h 29 min
Bit rate mode : Variable
Bit rate : 160 kb/s
Channel(s) : 2 channels
Channel positions : Front: L R
Sampling rate : 48.0 kHz
Frame rate : 46.875 FPS (1024 spf)
Compression mode : Lossy
Stream size : 102 MiB (8%)
Title : Stereo / Stereo
Language : English
Default : Yes
Alternate group : 1
Menus : 3

Menu
ID : 3
Codec ID : text
Duration : 1 h 29 min
Language : English
Bit rate mode : CBR
Menu For : 1,2
00:00:00.000 : 00:00:00.000
00:05:06.973 : 00:05:06.056
00:11:22.015 : 00:11:20.847
00:14:06.179 : 00:14:06.012
00:18:15.761 : 00:18:15.469
00:24:13.452 : 00:24:13.410
00:28:47.059 : 00:28:46.934
00:34:24.729 : 00:34:23.728
00:38:58.336 : 00:38:57.168
00:43:33.277 : 00:43:32.819
00:49:01.605 : 00:49:00.521
00:52:00.451 : 00:51:59.283
00:53:57.901 : 00:53:57.484
00:59:06.209 : 00:59:05.751
01:05:31.928 : 01:05:31.928
01:09:56.192 : 01:09:55.274
01:13:28.404 : 01:13:27.111
01:15:21.851 : 01:15:21.392
01:22:07.589 : 01:22:06.630
01:24:45.080 : 01:24:43.996

Files:

Sleight (2016) 1920 x 800 (1080p) x264 Phun Psyz
  • katcr.co.txt (0.0 KB)
  • Torrent_downloaded_from_Demonoid_-_www.demonoid.pw_.txt (0.1 KB)
  • Sleight (2016) 1920 x 800 (1080p) x264 Phun Psyz.mp4 (1.3 GB)

There are currently no comments. Feel free to leave one :)

Code:

  • udp://tracker.opentrackr.org:1337/announce
  • http://mgtracker.org:6969/announce
  • udp://inferno.demonoid.pw:3397/announce
  • udp://tracker.tiny-vps.com:6969/announce
  • udp://tracker.coppersurfer.tk:6969/announce
  • udp://tracker.pirateparty.gr:6969/announce
  • udp://public.popcorn-tracker.org:6969/announce
  • udp://shadowshq.yi.org:6969/announce
  • udp://tracker.leechers-paradise.org:6969/announce
  • udp://eddie4.nl:6969/announce
  • udp://tracker.zer0day.to:1337/announce
  • udp://tracker.grepler.com:6969/announce