Countdown.2016.3D.1080p.BluRay.x264-VALUE

  • Category Movies
  • Type HD
  • Language English
  • Total size 5.5 GB
  • Uploaded By sub7
  • Downloads 164
  • Last checked 2 hours ago
  • Date uploaded 4 years ago
  • Seeders 0
  • Leechers 0

Countdown

Action

A madman captures a young boy and rigs him with explosives. Ray Fitzpatrick, still haunted by the loss of his own son, will defy orders to stop the clock and save a life

Infohash : 74A87CE9CBE551BF3A2FA89F3590A0767EE53520


Countdown.2016.3D.1080p.BluRay.x264-VALUE

ImDb: http://www.imdb.com/title/tt2571304



Complete name : countdown.2016.3d.1080p.bluray.x264-value.mkv
Format : Matroska
Format version : Version 4 / Version 2
File size : 5.46 GiB
Duration : 1 h 30 min
Overall bit rate : 8 663 kb/s
Encoded date : UTC 2017-07-07 18:55:37
Writing application : mkvmerge v8.5.0 ('Vanishing Act') 64bit
Writing library : libebml v1.3.1 + libmatroska v1.4.2

Video
ID : 1
Format : AVC
Format/Info : Advanced Video Codec
Format profile : [email protected]
MultiView_Count : 2
MultiView_Layout : Side by Side (left eye first)
Format settings, CABAC : Yes
Format settings, ReFrames : 4 frames
Codec ID : V_MPEG4/ISO/AVC
Duration : 1 h 27 min
Bit rate : 8 149 kb/s
Width : 1 920 pixels
Height : 1 080 pixels
Display aspect ratio : 16:9
Frame rate mode : Constant
Frame rate : 23.976 (24000/1001) FPS
Color space : YUV
Chroma subsampling : 4:2:0
Bit depth : 8 bits
Scan type : Progressive
Bits/(Pixel*Frame) : 0.164
Stream size : 4.97 GiB (91%)
Writing library : x264 core 152 r2851 ba24899
Encoding settings : cabac=1 / ref=4 / deblock=1:-1:-1 / analyse=0x3:0x133 / me=umh / subme=8 / psy=1 / psy_rd=1.00:0.15 / mixed_ref=1 / me_range=16 / chroma_me=1 / trellis=1 / 8x8dct=1 / cqm=0 / deadzone=21,11 / fast_pskip=0 / chroma_qp_offset=-4 / threads=24 / lookahead_threads=4 / sliced_threads=0 / nr=0 / decimate=1 / interlaced=0 / bluray_compat=0 / constrained_intra=0 / bframes=3 / b_pyramid=2 / b_adapt=2 / b_bias=0 / direct=3 / weightb=1 / open_gop=0 / weightp=2 / keyint=240 / keyint_min=23 / scenecut=40 / intra_refresh=0 / rc_lookahead=50 / rc=2pass / mbtree=1 / bitrate=8149 / ratetol=1.0 / qcomp=0.60 / qpmin=10 / qpmax=69 / qpstep=4 / cplxblur=20.0 / qblur=0.5 / ip_ratio=1.40 / aq=1:1.00
Language : English
Default : Yes
Forced : No

Audio
ID : 2
Format : DTS
Format/Info : Digital Theater Systems
Mode : 16
Format settings, Endianness : Big
Codec ID : A_DTS
Duration : 1 h 30 min
Bit rate mode : Constant
Bit rate : 768 kb/s
Channel(s) : 6 channels
Channel positions : Front: L C R, Side: L R, LFE
Sampling rate : 48.0 kHz
Frame rate : 93.750 FPS (512 spf)
Bit depth : 24 bits
Compression mode : Lossy
Stream size : 496 MiB (9%)
Language : English
Default : Yes
Forced : No

Menu
00:00:00.000 : en:00:00:00.000
00:01:11.280 : en:00:01:11.280
00:07:14.434 : en:00:07:14.434
00:12:42.345 : en:00:12:42.345
00:22:23.968 : en:00:22:23.968
00:32:37.789 : en:00:32:37.789
00:40:34.641 : en:00:40:34.641
00:51:09.483 : en:00:51:09.483
01:00:43.849 : en:01:00:43.849
01:07:26.459 : en:01:07:26.459
01:13:20.605 : en:01:13:20.605
01:24:04.289 : en:01:24:04.289






Click To View Screenshot

Click To View Screenshot

Click To View Screenshot

Files:

Countdown.2016.3D.1080p.BluRay.x264-VALUE
  • countdown.2016.3d.1080p.bluray.x264-value.mkv (5.5 GB)
  • countdown.2016.3d.1080p.bluray.x264-value.nfo (0.3 KB)

There are currently no comments. Feel free to leave one :)

Code:

  • udp://tracker.coppersurfer.tk:6969/announce
  • udp://tracker.pirateparty.gr:6969/announce
  • udp://shadowshq.yi.org:6969/announce
  • udp://eddie4.nl:6969/announce
  • udp://tracker.leechers-paradise.org:6969/announce
  • udp://tracker.opentrackr.org:1337/announce
  • udp://p4p.arenabg.ch:1337/announce
  • udp://p4p.arenabg.com:1337/announce
  • udp://9.rarbg.me:2710/announce
  • udp://9.rarbg.to:2710/announce
  • udp://ipv4.tracker.harry.lu:80/announce
  • udp://tracker.grepler.com:6969/announce
  • udp://public.popcorn-tracker.org:6969/announce
  • udp://tracker.opentrackr.org:1337/announce
  • udp://tracker.zer0day.to:1337/announce